8/22/2021

Ouija Full Movie Download Hd

Instructions to Download Full Movie: 1. Watch Ouija: Origin of Evil (2016) Full Movie HD 1080p Ouija: Origin of Evil (2016) Full Movie 2015 Torrent. Watch Ouija 2014 full movie, online, free Putlocker Megashare Viooz Download Ouija Full Movie Free Download Ouija Movie: I’m being facetious—sort of. The obvious allure of the Ouija board, and why the “based on the board game by Hasbro” credit appears prominently in this movie, is that these creepy stories are why people bought.

Ouija: Origin of Evil (2016) Movie


Ouija movie cast

Release Date:
October 21, 2016
Runtime:
117 minutes (1′ 57″)
1:57:
categories:
Horror
– Horror

Ouija Full Movie Download Hd Free

Production:
Universal Pictures
Language:
English
Budget:
US $0
Country:

Photo app location maccleverwars. Rating:
0 / 0
Movie Synopsis:
In 1965 Los Angeles, a widowed mother and her two daughters add a new stunt to bolster their séance scam business and unwittingly invite authentic evil into their home. When the youngest daughter is overtaken by the merciless spirit, this small family confronts unthinkable fears to save her and send her possessor back to the other side.

Instructions to Download Full Movie:
1. Click the link.
2. Create you free account & you will be redirected to your movie!!

Full

Enjoy Your Free Full HD Movies!
—————————————————-

Ouija Full Movie Download Hd

Keywords:

  • Ouija: Origin of Evil (2016) Movie
  • Ouija: Origin of Evil (2016) Movie
  • Ouija: Origin of Evil (2016) Movie
    Ouija: Origin of Evil (2016) Full Movie
    Ouija: Origin of Evil (2016) Full Movie 2015 english subtitles
    Ouija: Origin of Evil (2016) trailer review
    Ouija: Origin of Evil (2016) trailer

Ouija Full Movie Download Hd Movie Free

Ouija: Origin of Evil (2016) [HD] (3D) regarder en francais English Subtitles
Ouija: Origin of Evil (2016) Película Completa Subtitulada en Español
Ouija: Origin of Evil (2016) Full Movie subtitled in Spanish
Ouija: Origin of Evil (2016) Full Movie subtitled in French
Ouija: Origin of Evil (2016) Film complet sous-titrée en français
Ouija: Origin of Evil (2016) Full Movie subtitled in German
Ouija: Origin of Evil (2016) volledige film ondertiteld in het Nederlands
Ouija: Origin of Evil (2016) Full movie subtitled in Portuguese
Ouija: Origin of Evil (2016) Filme completo com legendas em Português

Ouija full movie 123

Ouija: Origin of Evil (2016) Movie

Watch Ouija: Origin of Evil (2016) in HD 1080p, Watch Ouija: Origin of Evil (2016) in HD, Watch Ouija: Origin of Evil (2016) 2015 Online, Ouija: Origin of Evil (2016) Full Movie, Watch Ouija: Origin of Evil (2016) Full Movie Free Online Streaming

Ouija Full Movie 2014

Ouija: Origin of Evil (2016) Full Movie
Watch Ouija: Origin of Evil (2016) full movie, online
Ouija: Origin of Evil (2016) Full Movie Streaming Online in HD-720p Video Quality
Download Ouija: Origin of Evil (2016) Full Movie 2015
Where to Download Ouija: Origin of Evil (2016) Full Movie 2015?
Watch Ouija: Origin of Evil (2016) Full Movie
Watch Ouija: Origin of Evil (2016) full movie, online
Watch Ouija: Origin of Evil (2016) Full Movie HD 1080p
Ouija: Origin of Evil (2016) Full Movie 2015 Torrent

Ouija Full Movie Download Hd 720p

Ouija: Origin of Evil (2016) Movie

Ouija Full Movie Download Hd 1080p

Format : Matroska
Format version : Version 4
File size : 3.39 GiB
Duration : 1 h 29 min
Overall bit rate : 5 424 kb/s
Video
ID : 1
Format : HEVC
Format/Info : High Efficiency Video Coding
Format profile : Main [email protected]@Main
Codec ID : V_MPEGH/ISO/HEVC
Duration : 1 h 29 min
Bit rate : 3 999 kb/s
Width : 1 920 pixels
Height : 800 pixels
Display aspect ratio : 2.40:1
Frame rate mode : Constant
Frame rate : 23.976 (24000/1001) FPS
Color space : YUV
Chroma subsampling : 4:2:0
Bit depth : 10 bits
Bits/(Pixel*Frame) : 0.109
Stream size : 2.50 GiB (74%)
Writing library : x265 3.4+6-g73f96ff39:[Windows][GCC 11.0.0][64 bit] 10bit
Encoding settings : cpuid=1111039 / frame-threads=4 / numa-pools=24 / wpp / no-pmode / no-pme / no-psnr / no-ssim / log-level=2 / input-csp=1 / input-res=1920x800 / interlace=0 / total-frames=128592 / level-idc=0 / high-tier=1 / uhd-bd=0 / ref=5 / no-allow-non-conformance / no-repeat-headers / annexb / no-aud / no-hrd / info / hash=0 / no-temporal-layers / open-gop / min-keyint=23 / keyint=250 / gop-lookahead=0 / bframes=8 / b-adapt=2 / b-pyramid / bframe-bias=0 / rc-lookahead=100 / lookahead-slices=4 / scenecut=40 / hist-scenecut=0 / radl=0 / no-splice / no-intra-refresh / ctu=64 / min-cu-size=8 / rect / amp / max-tu-size=32 / tu-inter-depth=2 / tu-intra-depth=2 / limit-tu=1 / rdoq-level=2 / dynamic-rd=0.00 / ssim-rd / signhide / no-tskip / nr-intra=0 / nr-inter=0 / no-constrained-intra / strong-intra-smoothing / max-merge=5 / limit-refs=3 / limit-modes / me=3 / subme=6 / merange=57 / temporal-mvp / no-frame-dup / no-hme / weightp / no-weightb / no-analyze-src-pics / deblock=0:0 / sao / no-sao-non-deblock / rd=4 / selective-sao=4 / no-early-skip / no-rskip / no-fast-intra / no-tskip-fast / no-cu-lossless / no-b-intra / no-splitrd-skip / rdpenalty=0 / psy-rd=0.00 / psy-rdoq=2.00 / no-rd-refine / no-lossless / cbqpoffs=0 / crqpoffs=0 / rc=abr / bitrate=4000 / qcomp=0.60 / qpstep=4 / stats-write=0 / stats-read=2 / cplxblur=20.0 / qblur=0.5 / ipratio=1.40 / pbratio=1.30 / aq-mode=4 / aq-strength=1.00 / cutree / zone-count=0 / no-strict-cbr / qg-size=32 / rc-grain / qpmax=69 / qpmin=0 / no-const-vbv / sar=0 / overscan=0 / videoformat=5 / range=0 / colorprim=2 / transfer=2 / colormatrix=2 / chromaloc=0 / display-window=0 / cll=0,0 / min-luma=0 / max-luma=1023 / log2-max-poc-lsb=8 / vui-timing-info / vui-hrd-info / slices=1 / no-opt-qp-pps / no-opt-ref-list-length-pps / no-multi-pass-opt-rps / scenecut-bias=0.05 / hist-threshold=0.01 / no-opt-cu-delta-qp / aq-motion / no-hdr10 / no-hdr10-opt / no-dhdr10-opt / no-idr-recovery-sei / analysis-reuse-level=0 / analysis-save-reuse-level=0 / analysis-load-reuse-level=0 / scale-factor=0 / refine-intra=0 / refine-inter=0 / refine-mv=1 / refine-ctu-distortion=0 / no-limit-sao / ctu-info=0 / no-lowpass-dct / refine-analysis-type=0 / copy-pic=1 / max-ausize-factor=1.0 / no-dynamic-refine / no-single-sei / hevc-aq / no-svt / no-field / qp-adaptation-range=1.00 / no-scenecut-aware-qpconformance-window-offsets / right=0 / bottom=0 / decoder-max-rate=0
Default : Yes
Forced : No
Audio #1
ID : 2
Format : DTS
Format/Info : Digital Theater Systems
Codec ID : A_DTS
Duration : 1 h 29 min
Bit rate mode : Constant
Bit rate : 768 kb/s
Channel(s) : 6 channels
Channel layout : C L R Ls Rs LFE
Sampling rate : 48.0 kHz
Frame rate : 93.750 FPS (512 SPF)
Bit depth : 24 bits
Compression mode : Lossy
Stream size : 491 MiB (14%)
Title : Org BD DTS 5.1 768Kbps ~ TombDoc
Language : Hindi
Default : Yes
Forced : Yes
Audio #2
ID : 3
Format : E-AC-3
Format/Info : Enhanced AC-3
Commercial name : Dolby Digital Plus
Codec ID : A_EAC3
Duration : 1 h 29 min
Bit rate mode : Constant
Bit rate : 640 kb/s
Channel(s) : 6 channels
Channel layout : L R C LFE Ls Rs
Sampling rate : 48.0 kHz
Frame rate : 31.250 FPS (1536 SPF)
Compression mode : Lossy
Stream size : 409 MiB (12%)
Title : DD+ 5.1 English
Language : English
Service kind : Complete Main
Default : No
Forced : No
Text #1
ID : 4
Format : PGS
Muxing mode : zlib
Codec ID : S_HDMV/PGS
Codec ID/Info : Picture based subtitle format used on BDs/HD-DVDs
Duration : 1 h 28 min
Bit rate : 471 b/s
Count of elements : 76
Stream size : 307 KiB (0%)
Title : Hindi BD-PGS {Forced}
Language : Hindi
Default : Yes
Forced : Yes
Text #2
ID : 5
Format : PGS
Muxing mode : zlib
Codec ID : S_HDMV/PGS
Codec ID/Info : Picture based subtitle format used on BDs/HD-DVDs
Duration : 1 h 28 min
Bit rate : 16.7 kb/s
Count of elements : 1560
Stream size : 10.6 MiB (0%)
Title : Hindi BD-PGS
Language : Hindi
Default : No
Forced : No
Text #3
ID : 6
Format : PGS
Muxing mode : zlib
Codec ID : S_HDMV/PGS
Codec ID/Info : Picture based subtitle format used on BDs/HD-DVDs
Duration : 1 h 22 min
Bit rate : 29.2 kb/s
Count of elements : 1958
Stream size : 17.2 MiB (0%)
Title : Eng BD-PGS-SDH
Language : English
Default : No
Forced : No
Menu
00:00:00.000 : en:Chapter 01
00:05:22.822 : en:Chapter 02
00:09:30.361 : en:Chapter 03
00:11:55.673 : en:Chapter 04
00:16:27.153 : en:Chapter 05
00:18:56.802 : en:Chapter 06
00:24:13.827 : en:Chapter 07
00:26:07.357 : en:Chapter 08
00:32:09.344 : en:Chapter 09
00:36:52.127 : en:Chapter 10
00:41:43.126 : en:Chapter 11
00:44:13.943 : en:Chapter 12
00:50:08.464 : en:Chapter 13
00:55:04.009 : en:Chapter 14
01:00:28.625 : en:Chapter 15
01:05:12.200 : en:Chapter 16
01:10:02.949 : en:Chapter 17
01:14:18.496 : en:Chapter 18
01:20:20.441 : en:Chapter 19
01:22:46.461 : en:Chapter 20