8/21/2021

Download Torrent Snow White And The Huntsman

Download Torrent Snow White And The Huntsman

Berkeley Electronic Press Selected Works. Snow White, pursued by a jealous queen, hides with the Dwarfs; the queen feeds her a poison apple, but the handsome prince awakens her with a kiss. Addeddate 2020-04-09 17:37:34.

Share Ratio32 Seeds 31 Peers

The Huntsman: Winters War 2016 Download Movie Torrent

Download torrent

Long before the evil Queen Ravenna (Theron) thought defeated blade Snow White, she silently watched as her sister Freya (exacerbation), experiencing betrayal and violent left; Frey ability to freeze the enemy any young Ice Queen decades in the winter palace banquet remote Legion huntsmenincluding die Eric (Hemsworth) and warrior Sarah (Chastain), only to find that it returns two begged her one thing: their love forever hardened. Alvin And Chipmunks: Road Chip Kd

Freya when her sister’s death, she urged her colleagues to bring home the magic mirror witch who has just left his control; But then she saw that Ravenna can be revived from the depths of his sister evil that threatens the land fascinated double its darkest force ever; Now the army is accumulating their proven undefeatableunless exiled hunters who violate the rules of females they can fight their way back to each other.

– Release Notes –

Manuals and User Guides for Ford Tractor 2000 Series. We have 1 Ford Tractor 2000 Series manual available for free PDF download: Owner's Manual Ford Tractor 2000 Series Owner's Manual (40 pages). Ford tractor repair manual free. An illustration of two photographs. Files for tractors-19078764-Ford-Tractor-Models-2000-3000-4000-and-5000-Operators-Service-Manual. Download; Download manual. Download Ford Tractor 2000 Series Owner's Manual. Related Manuals for Ford Tractor 2000 Series. Tractor Ford Tractor 9N Service Manual 67 pages. Ford tractor 9n/ 2n. 2012-2021 ManualsLib. View and Download Ford Tractor 2000 Series owner's manual online. 2000 Series tractor pdf manual download. Also for: 4000 series, 801 d series, 601 d series, Series 600, Series 800.

quote:

Download torrent snow white and the huntsman 3

Movie Title: Huntsman: Winter War (2016 g)

Directed by Cedric Nicolas-Troyan

Stars: Chris Hemsworth, Jessica Chastain, Charlize Theron

Release Date 4 April 2016 (UK)

Genre: Action, Drama, Adventure

Format: Matroska (MKV)

Size: 85 0MB

The resolution: 1280×554

Duration: 1:44:36

White

English

Transfers: HC Chinese subwoofers Off

Encoder: MkvCage (GB) Team

source:

– Screenshot –

As the war between rival Queen Ravenna and sisters grew Frey, Eric and other soldiers Sarah fence as army expanded protection frame, trying to hide their love is forbidden, as they fight against intentional harm Ravenna.

Directed by Cedric Nicolas-Troyan

By Evan Spiliotopulos, Craig Mazin

Stars: Chris Hemsworth, Jessica Chastain, Charlize Theron

Genre: Action Adventure dance fraction

Country: United States

English

Video: AVC 2100kbps 2pass, HQ

The resolution: 720×320

Audio: AC3 digital audio

English

Translation: N / A

For example, components

Source: The camera UntouchLatino

Encoder: COG

And it camshaft fantastic week away it, but not perfect

Sound to play, so here are my friend hot summer title.

and cam actually encoded Re: Encryption Re: Encryption

Download Film Snow White And The Huntsman

firsthand encoded at a data rate is much lower. Group produces only

And radar, and they have respect! The remaining bunch clickers.

Download torrent snow white and the huntsman director

Talk about encryption.

Take the normal size of the video, culture, sharp, RGB, level and

Deadpool then synchronized online digital audio to video me.

DIPO lip synchronization methods. The film was completed, end credits there though!

Looks like work, his Soopers now.

Examples of symbols.

Watch Snow White And Huntsman

.

General
Format : Matroska
Format version : Version 4 / Version 2
File size : 1.57 GiB
Duration : 2 h 0 min
Overall bit rate : 1 873 kb/s
Movie name : The Huntsman Winters War 2016 Extended (1080p x265 10bit Joy)[UTR]
Encoded date : UTC 2017-08-01 01:18:47
Writing application : mkvmerge v14.0.0 ('Flow') 64bit
Writing library : libebml v1.3.4 + libmatroska v1.4.5
Cover : Yes
Attachments : cover.jpg
Writing frontend : StaxRip v1.5.3.4
Video
ID : 1
Format : HEVC
Format/Info : High Efficiency Video Coding
Format profile : Main [email protected]@Main
Codec ID : V_MPEGH/ISO/HEVC
Duration : 2 h 0 min
Bit rate : 1 501 kb/s
Width : 1 920 pixels
Height : 800 pixels
Display aspect ratio : 2.40:1
Frame rate mode : Constant
Frame rate : 23.976 (24000/1001) FPS
Color space : YUV
Chroma subsampling : 4:2:0
Bit depth : 10 bits
Bits/(Pixel*Frame) : 0.041
Stream size : 1.26 GiB (80%)
Writing library : x265 2.5+2-18fa144d453e:[Windows][GCC 7.1.0][64 bit] 10bit
Encoding settings : cpuid=1173503 / frame-threads=3 / numa-pools=8 / wpp / no-pmode / no-pme / no-psnr / ssim / log-level=2 / input-csp=1 / input-res=1920x800 / interlace=0 / total-frames=172874 / level-idc=0 / high-tier=1 / uhd-bd=0 / ref=3 / no-allow-non-conformance / no-repeat-headers / annexb / no-aud / no-hrd / info / hash=0 / no-temporal-layers / open-gop / min-keyint=23 / keyint=250 / bframes=4 / b-adapt=2 / b-pyramid / bframe-bias=0 / rc-lookahead=20 / lookahead-slices=5 / scenecut=40 / no-intra-refresh / ctu=64 / min-cu-size=8 / no-rect / no-amp / max-tu-size=32 / tu-inter-depth=1 / tu-intra-depth=1 / limit-tu=0 / rdoq-level=0 / dynamic-rd=0.00 / ssim-rd / signhide / no-tskip / nr-intra=0 / nr-inter=0 / no-constrained-intra / strong-intra-smoothing / max-merge=2 / limit-refs=3 / no-limit-modes / me=1 / subme=2 / merange=57 / temporal-mvp / weightp / no-weightb / no-analyze-src-pics / deblock=0:0 / sao / no-sao-non-deblock / rd=5 / no-early-skip / rskip / no-fast-intra / no-tskip-fast / no-cu-lossless / no-b-intra / rdpenalty=0 / psy-rd=0.00 / psy-rdoq=0.00 / no-rd-refine / analysis-reuse-mode=0 / no-lossless / cbqpoffs=0 / crqpoffs=0 / rc=abr / bitrate=1500 / qcomp=0.60 / qpstep=4 / stats-write=0 / stats-read=2 / cplxblur=20.0 / qblur=0.5 / ipratio=1.40 / pbratio=1.30 / aq-mode=3 / aq-strength=1.00 / cutree / zone-count=0 / no-strict-cbr / qg-size=32 / no-rc-grain / qpmax=69 / qpmin=0 / no-const-vbv / sar=0 / overscan=0 / videoformat=5 / range=0 / colorprim=2 / transfer=2 / colormatrix=2 / chromaloc=0 / display-window=0 / max-cll=0,0 / min-luma=0 / max-luma=1023 / log2-max-poc-lsb=8 / vui-timing-info / vui-hrd-info / slices=1 / opt-qp-pps / opt-ref-list-length-pps / multi-pass-opt-rps / scenecut-bias=0.05 / no-opt-cu-delta-qp / aq-motion / no-hdr / no-hdr-opt / no-dhdr10-opt / analysis-reuse-level=5 / scale-factor=0 / refine-intra=0 / refine-inter=0 / refine-mv=0 / no-limit-sao / ctu-info=0
Language : English
Default : Yes
Forced : No
Audio #1
ID : 2
Format : AAC
Format/Info : Advanced Audio Codec
Format profile : HE-AACv2 / HE-AAC / LC
Codec ID : A_AAC
Duration : 2 h 0 min
Bit rate : 305 kb/s
Channel(s) : 7 channels
Channel(s)_Original : 2 channels / 17 channels / 17 channels
Channel positions : Front: L R / , Side: 9, Back: 7, LFE / , Side: 9, Back: 7, LFE
Sampling rate : 48.0 kHz / 48.0 kHz / 24.0 kHz
Frame rate : 23.438 FPS (1024 spf)
Compression mode : Lossy
Delay relative to video : 31 ms
Stream size : 262 MiB (16%)
Language : English
Default : Yes
Forced : No
Audio #2
ID : 8
Format : AAC
Format/Info : Advanced Audio Codec
Format profile : HE-AAC / LC
Codec ID : A_AAC
Duration : 2 h 0 min
Bit rate : 48.0 kb/s
Channel(s) : 2 channels
Channel positions : Front: L R
Sampling rate : 48.0 kHz / 24.0 kHz
Frame rate : 23.438 FPS (1024 spf)
Compression mode : Lossy
Delay relative to video : 31 ms
Stream size : 40.3 MiB (3%)
Title : Commentary
Language : English
Default : No
Forced : No
Subtitle #1
ID : 3
Format : PGS
Muxing mode : zlib
Codec ID : S_HDMV/PGS
Codec ID/Info : Picture based subtitle format used on BDs/HD-DVDs
Duration : 1 h 59 min
Bit rate : 25.4 kb/s
Count of elements : 2652
Stream size : 21.7 MiB (1%)
Language : English
Default : No
Forced : No
Subtitle #2
ID : 4
Format : VobSub
Muxing mode : zlib
Codec ID : S_VOBSUB
Codec ID/Info : Picture based subtitle format used on DVDs
Duration : 1 h 59 min
Bit rate : 5 499 b/s
Count of elements : 1138
Stream size : 4.70 MiB (0%)
Language : Spanish
Default : No
Forced : No
Subtitle #3
ID : 5
Format : VobSub
Muxing mode : zlib
Codec ID : S_VOBSUB
Codec ID/Info : Picture based subtitle format used on DVDs
Duration : 1 h 59 min
Bit rate : 5 667 b/s
Count of elements : 1101
Stream size : 4.85 MiB (0%)
Language : French
Default : No
Forced : No
Subtitle #4
ID : 6
Format : VobSub
Muxing mode : zlib
Codec ID : S_VOBSUB
Codec ID/Info : Picture based subtitle format used on DVDs
Duration : 1 h 58 min
Bit rate : 18 b/s
Count of elements : 11
Stream size : 16.4 KiB (0%)
Language : Spanish
Default : No
Forced : No
Subtitle #5
ID : 7
Format : VobSub
Muxing mode : zlib
Codec ID : S_VOBSUB
Codec ID/Info : Picture based subtitle format used on DVDs
Duration : 2 h 0 min
Bit rate : 7 b/s
Count of elements : 12
Stream size : 6.80 KiB (0%)
Language : French
Default : No
Forced : No
Subtitle #6
ID : 9
Format : UTF-8
Codec ID : S_TEXT/UTF8
Codec ID/Info : UTF-8 Plain Text
Duration : 1 h 56 min
Bit rate : 63 b/s
Count of elements : 1077
Stream size : 53.9 KiB (0%)
Language : Arabic
Default : No
Forced : No
Subtitle #7
ID : 10
Format : UTF-8
Codec ID : S_TEXT/UTF8
Codec ID/Info : UTF-8 Plain Text
Duration : 1 h 59 min
Bit rate : 27 b/s
Count of elements : 1144
Stream size : 24.1 KiB (0%)
Language : Chinese
Default : No
Forced : No
Subtitle #8
ID : 11
Format : UTF-8
Codec ID : S_TEXT/UTF8
Codec ID/Info : UTF-8 Plain Text
Duration : 1 h 59 min
Bit rate : 31 b/s
Count of elements : 821
Stream size : 27.9 KiB (0%)
Language : Danish
Default : No
Forced : No
Subtitle #9
ID : 12
Format : UTF-8
Codec ID : S_TEXT/UTF8
Codec ID/Info : UTF-8 Plain Text
Duration : 1 h 59 min
Bit rate : 32 b/s
Count of elements : 840
Stream size : 28.1 KiB (0%)
Language : Dutch
Default : No
Forced : No
Subtitle #10
ID : 13
Format : UTF-8
Codec ID : S_TEXT/UTF8
Codec ID/Info : UTF-8 Plain Text
Duration : 1 h 59 min
Bit rate : 56 b/s
Count of elements : 1153
Stream size : 49.6 KiB (0%)
Language : Persian
Default : No
Forced : No
Subtitle #11
ID : 14
Format : UTF-8
Codec ID : S_TEXT/UTF8
Codec ID/Info : UTF-8 Plain Text
Duration : 1 h 59 min
Bit rate : 30 b/s
Count of elements : 843
Stream size : 27.0 KiB (0%)
Language : Finnish
Default : No
Forced : No
Subtitle #12
ID : 15
Format : UTF-8
Codec ID : S_TEXT/UTF8
Codec ID/Info : UTF-8 Plain Text
Duration : 1 h 59 min
Bit rate : 36 b/s
Count of elements : 1099
Stream size : 32.0 KiB (0%)
Language : German
Default : No
Forced : No
Subtitle #13
ID : 16
Format : UTF-8
Codec ID : S_TEXT/UTF8
Codec ID/Info : UTF-8 Plain Text
Duration : 1 h 59 min
Bit rate : 38 b/s
Count of elements : 1103
Stream size : 33.7 KiB (0%)
Language : Icelandic
Default : No
Forced : No
Subtitle #14
ID : 17
Format : UTF-8
Codec ID : S_TEXT/UTF8
Codec ID/Info : UTF-8 Plain Text
Duration : 1 h 59 min
Bit rate : 30 b/s
Count of elements : 1032
Stream size : 26.6 KiB (0%)
Language : Norwegian
Default : No
Forced : No
Subtitle #15
ID : 18
Format : UTF-8
Codec ID : S_TEXT/UTF8
Codec ID/Info : UTF-8 Plain Text
Duration : 1 h 59 min
Bit rate : 35 b/s
Count of elements : 998
Stream size : 30.7 KiB (0%)
Language : Swedish
Default : No
Forced : No
Subtitle #16
ID : 19
Format : UTF-8
Codec ID : S_TEXT/UTF8
Codec ID/Info : UTF-8 Plain Text
Duration : 2 h 0 min
Bit rate : 75 b/s
Count of elements : 1100
Stream size : 66.3 KiB (0%)
Language : Thai
Default : No
Forced : No
Subtitle #17
ID : 20
Format : UTF-8
Codec ID : S_TEXT/UTF8
Codec ID/Info : UTF-8 Plain Text
Duration : 1 h 50 min
Bit rate : 89 b/s
Count of elements : 1138
Stream size : 72.2 KiB (0%)
Language : Vietnamese
Default : No
Forced : No
Menu
00:00:00.000 : en:Chapter 1
00:06:26.427 : en:Chapter 2
00:09:26.857 : en:Chapter 3
00:15:03.193 : en:Chapter 4
00:21:33.500 : en:Chapter 5
00:30:17.857 : en:Chapter 6
00:36:08.165 : en:Chapter 7
00:40:55.661 : en:Chapter 8
00:46:56.438 : en:Chapter 9
00:52:05.747 : en:Chapter 10
00:59:35.530 : en:Chapter 11
01:04:23.943 : en:Chapter 12
01:11:16.688 : en:Chapter 13
01:15:19.222 : en:Chapter 14
01:22:42.832 : en:Chapter 15
01:28:15.206 : en:Chapter 16
01:33:58.007 : en:Chapter 17
01:39:21.955 : en:Chapter 18
01:48:13.903 : en:Chapter 19
01:50:19.571 : en:Chapter 20